Clicky

Kong: Skull Island 2017 HDCAM XviD DIRG

seeders: 2766
leechers: 1205
updated:
Added by makintos13 in Movies
Torrent reliable.
Torrent verified.


Kong: Skull Island 2017 HDCAM XviD DIRG Size: 2.48 GB (2662879723 Bytes)

Description

screens:
 
https://imgmak.com/bV7
 
https://imgmak.com/bVk
 
https://imgmak.com/bVm
 
https://imgmak.com/bVu
 
https://imgmak.com/bV5
 
https://imgmak.com/bV1
 
https://imgmak.com/bVU
 
https://imgmak.com/bV3

Kong: Skull Island 2017 HDCAM XviD DIRG


Runtime ..........: 1:47:55
IMDb URL .........: http://www.imdb.com/title/tt3731562
Language .........: English
File Size ........: 2.5 GB
Release Date .....: 2017
Source ...........: Mr.Miyagi
File Type ........: AVI
Genre ............: Action, Adventure, Fantasy

Video
ID : 0
Format : MPEG-4 Visual
Format profile : Advanced [email protected]
Format settings, BVOP : 2
Format settings, QPel : Yes
Format settings, GMC : 3 warppoints
Format settings, Matrix : Default (H.263)
Muxing mode : Packed bitstream
Codec ID : XVID
Codec ID/Hint : XviD
Duration : 1 h 47 min
Bit rate : 3 054 kb/s
Width : 720 pixels
Height : 320 pixels
Display aspect ratio : 2.25:1
Frame rate : 23.976 (24000/1001) FPS
Color space : YUV
Chroma subsampling : 4:2:0
Bit depth : 8 bits
Scan type : Progressive
Compression mode : Lossy
Bits/(Pixel*Frame) : 0.553
Stream size : 2.30 GiB (94%)
Writing library : XviD 73

Audio
ID : 1
Format : MPEG Audio
Format version : Version 1
Format profile : Layer 3
Mode : Joint stereo
Codec ID : 55
Codec ID/Hint : MP3
Duration : 1 h 47 min
Bit rate mode : Constant
Bit rate : 192 kb/s
Channel(s) : 2 channels
Sampling rate : 48.0 kHz
Compression mode : Lossy
Stream size : 148 MiB (6%)
Alignment : Split accross interleaves
Interleave, duration : 42 ms (1.00 video frame)
Interleave, preload duratio : 500 ms

Sharing Widget


Download torrent
Size: 2.48 GB (2662879723 Bytes)
seeders:2766
leechers:1205
Kong: Skull Island 2017 HDCAM XviD DIRG



To share this torrent use the code below and insert it into comments, status messages, forum posts or your signature.

Torrent: Kong: Skull Island 2017 HDCAM XviD DIRG

Trackers

tracker name
udp://tracker.leechers-paradise.org:6969
udp://zer0day.ch:1337
udp://tracker.coppersurfer.tk:6969
udp://public.popcorn-tracker.org:6969
ĀµTorrent compatible trackers list

Locations

name
KickassTorrents
Torrent hash: 6E517D1DAE3929404B512FE183084C0E3283FCFD

All Comments

audio
0/10
video
0/10
please, leave only comments related to that torrent
Sign In

Report a bug